travismk
一代宗师

[2016] [欧美] [其他] [WEB-1080P] 劫后余生:切尔诺贝利/核灾后的切尔诺贝利 Life.After.Chernobyl.2016.1080p.DSCP.WEBRip.AAC2.0.x264-pla

-->

帖子完整标题:劫后余生:切尔诺贝利/核灾后的切尔诺贝利 Life.After.Chernobyl.2016.1080p.DSCP.WEBRip.AAC2.0.x264-playWEB 1.98GB



◎译  名 劫后余生:切尔诺贝利/核灾后的切尔诺贝利
◎片  名 Life After: Chernobyl
◎年  代 2016
◎产  地 美国
◎类  别 纪录片
◎语  言 英语
◎上映日期 2016-04-16
◎IMDb评分 5.8/10 from 137 users
◎IMDb链接 https://www.imdb.com/title/tt5653604/
◎豆瓣评分 5.9/10 from 104 users
◎豆瓣链接 https://movie.douban.com/subject/26806109/
◎片  长 45分钟
◎主  演 玛丽-安·奥乔塔 Mary-ann Ochota

◎标  签 纪录片 | 灾难 | 切尔诺贝利 | 英国 | 纪录 | 动物 | 俄罗斯 | chernobyl

◎简  介

  距离历史上最严重的核灾难已经过去了30余年,这场灾难将大量的高放射性沉降物释放到大气中,其量是广岛及长崎原子弹辐射总量的100倍之多。现如今,两位科学家获准可进入臭名昭著的切尔诺贝利核电站周边地区,他们就是生物学家罗布?纳尔逊和人类学家玛丽安?欧荷塔,他们是首批获准可以无限制进入切尔诺贝利危险区域的科学家,其目的是调查30年过后,全球核污染最严重的区域内的环境和野生动植物都受到了怎样的影响。为了调查需要,他们可在内部作较长时间的停留,但是他们需要确保其身体接触到的辐射必须在可承受的范围之内。

Video
ID : 1
Format : AVC
Format/Info : Advanced Video Codec
Format profile : [email protected]
Format settings : CABAC / 4 Ref Frames
Format settings, CABAC : Yes
Format settings, Reference frames : 4 frames
Codec ID : V_MPEG4/ISO/AVC
Duration : 43 min 31 s
Bit rate : 6 400 kb/s
Width : 1 920 pixels
Height : 1 080 pixels
Display aspect ratio : 16:9
Frame rate mode : Constant
Frame rate : 25.000 FPS
Color space : YUV
Chroma subsampling : 4:2:0
Bit depth : 8 bits
Scan type : Progressive
Bits/(Pixel*Frame) : 0.123
Stream size : 1.93 GiB (97%)
Writing library : x264 core 157
Encoding settings : cabac=1 / ref=3 / deblock=1:0:0 / analyse=0x3:0x133 / me=hex / subme=9 / psy=1 / psy_rd=1.00:0.00 / mixed_ref=1 / me_range=16 / chroma_me=1 / trellis=2 / 8x8dct=1 / cqm=0 / deadzone=21,11 / fast_pskip=1 / chroma_qp_offset=-2 / threads=34 / lookahead_threads=2 / sliced_threads=0 / nr=0 / decimate=1 / interlaced=0 / bluray_compat=0 / constrained_intra=0 / bframes=3 / b_pyramid=2 / b_adapt=2 / b_bias=0 / direct=3 / weightb=1 / open_gop=0 / weightp=2 / keyint=50 / keyint_min=26 / scenecut=0 / intra_refresh=0 / rc_lookahead=60 / rc=cbr / mbtree=1 / bitrate=6400 / ratetol=1.0 / qcomp=0.60 / qpmin=0 / qpmax=69 / qpstep=4 / vbv_maxrate=6400 / vbv_bufsize=32000 / nal_hrd=none / filler=0 / ip_ratio=1.40 / aq=1:1.00
Default : Yes
Forced : No

Audio
ID : 2
Format : AAC LC
Format/Info : Advanced Audio Codec Low Complexity
Codec ID : A_AAC-2
Duration : 43 min 31 s
Bit rate : 160 kb/s
Channel(s) : 2 channels
Channel layout : L R
Sampling rate : 48.0 kHz
Frame rate : 46.875 FPS (1024 SPF)
Compression mode : Lossy
Stream size : 49.8 MiB (2%)
Language : English
Default : Yes
Forced : No

Text
ID : 3
Format : UTF-8
Codec ID : S_TEXT/UTF8
Codec ID/Info : UTF-8 Plain Text
Duration : 43 min 27 s
Bit rate : 92 b/s
Count of elements : 768
Stream size : 29.5 KiB (0%)
Language : English
Default : Yes
Forced : No





1 个附件 售价 大小 下载 时间

Life.After.Chernobyl.2016.1080p.DSCP.WEBRip.AAC2.0.x264-playWEB.zip 0 金币 20.45K 1043 次 9天前

#1楼
发帖时间:2021-04-08 00:34:50   |   回复数:0
游客组