travismk
一代宗师

[2020] [欧美] [恐怖] [WEB-1080P] 魔鬼的熟悉 The.Devils.Familiar.2020.1080p.AMZN.WEBRip.DDP2.0.x264-NWD 3.76GB

-->

帖子完整标题:魔鬼的熟悉 The.Devils.Familiar.2020.1080p.AMZN.WEBRip.DDP2.0.x264-NWD 3.76GB



◎译  名 魔鬼的熟悉
◎片  名 The Devil's Familiar
◎年  代 2020
◎产  地 英国
◎类  别 恐怖
◎语  言 英语
◎上映日期 2020-01-12(英国)
◎IMDb评分 3.5/10 from 46 users
◎IMDb链接 https://www.imdb.com/title/tt12935074/
◎豆瓣评分 /10 from 0 users
◎豆瓣链接 https://movie.douban.com/subject/35205830/
◎片  长 60分钟

◎标  签 [歐美]

◎简  介

  'The Devil's Familiar' A Found Footage Horror Feature brought to you by Severed Head Entertainment.. A video camera is anonymously handed into Police.. The extracted footage is projected onto...

Video
ID : 1
Format : AVC
Format/Info : Advanced Video Codec
Format profile : [email protected]
Format settings : CABAC / 4 Ref Frames
Format settings, CABAC : Yes
Format settings, Reference frames : 4 frames
Codec ID : V_MPEG4/ISO/AVC
Duration : 56 min 25 s
Bit rate mode : Constant
Bit rate : 9 322 kb/s
Nominal bit rate : 10 000 kb/s
Width : 1 920 pixels
Height : 1 040 pixels
Display aspect ratio : 1.85:1
Frame rate mode : Constant
Frame rate : 25.000 FPS
Color space : YUV
Chroma subsampling : 4:2:0
Bit depth : 8 bits
Scan type : Progressive
Bits/(Pixel*Frame) : 0.187
Stream size : 3.67 GiB (98%)
Default : Yes
Forced : No
Color range : Limited
Color primaries : BT.709
Transfer characteristics : BT.709
Matrix coefficients : BT.709

Audio
ID : 2
Format : E-AC-3
Format/Info : Enhanced AC-3
Commercial name : Dolby Digital Plus
Codec ID : A_EAC3
Duration : 56 min 25 s
Bit rate mode : Constant
Bit rate : 224 kb/s
Channel(s) : 2 channels
Channel layout : L R
Sampling rate : 48.0 kHz
Frame rate : 31.250 FPS (1536 SPF)
Compression mode : Lossy
Stream size : 90.4 MiB (2%)
Language : English
Service kind : Complete Main
Default : Yes
Forced : No

Text
ID : 3
Format : UTF-8
Codec ID : S_TEXT/UTF8
Codec ID/Info : UTF-8 Plain Text
Duration : 52 min 25 s
Bit rate : 100 b/s
Count of elements : 996
Stream size : 38.7 KiB (0%)
Title : SDH
Language : English
Default : No
Forced : No





1 个附件 售价 大小 下载 时间

The.Devils.Familiar.2020.1080p.AMZN.WEBRip.DDP2.0.x264-NWD.zip 0 金币 38.32K 280 次 9天前

#1楼
发帖时间:2021-04-08 00:23:01   |   回复数:0
游客组