coor
一代宗师

[更 早] [其他] [其他] [BD-1080P] 11点14分 11.14.2003.1080p.BluRay.x264.DTS-FGT 7.93GB

-->



◎译  名 11点14分
◎片  名 11:14
◎年  代 2003
◎产  地 美国 / 加拿大
◎类  别 悬疑 / 犯罪
◎语  言 英语
◎上映日期 2003-05-16(戛纳电影节)
◎IMDb评分 7.2/10 from 44039 users
◎IMDb链接 https://www.imdb.com/title/tt0331811
◎豆瓣评分 7.6/10 from 32012 users
◎豆瓣链接 https://movie.douban.com/subject/1394825/
◎片  长 85分钟(多伦多电影节l)
◎导  演 Greg Marcks
◎编  剧 Greg Marcks
◎主  演 亨利·托马斯 Henry Thomas
      布莱克·赫伦 Blake Heron
      芭芭拉·赫希 Barbara Hershey
      克拉克·格雷格 Clark Gregg
      希拉里·斯万克 Hilary Swank
      肖恩·海托西 Shawn Hatosy
      斯塔克·桑德斯 Stark Sands
      科林·汉克斯 Colin Hanks
      本·福斯特 Ben Foster
      帕特里克·斯威兹 Patrick Swayze
      瑞切尔·蕾·库克 Rachael Leigh Cook
      杰森·席格尔 Jason Segel
      Rick Gomez


◎标  签 悬疑 | 黑色幽默 | 美国 | 犯罪 | 剧情 | 美国电影 | 2003 | 惊悚

◎简  介

  杰克(亨利?托马斯 Henry Thomas 饰)夜间酒后驾驶,并用手机打电话聊天,却没曾想在穿过立交天桥时,一具尸体从天而降。便利店员达菲(萧恩?哈特西 Shawn Hatosy 饰)因女友雪莉(瑞切尔?蕾?库克 Rachel Leigh Cook 饰)怀孕打胎一事向同事步兹(希拉里?斯万克 Hillary Swank 饰)借钱,假扮便利店被劫。而此前,一群少年从便利店买了过期的甜甜圈,夜晚飙车并向他人投掷甜甜圈取乐。已打算和达菲分手的雪莉不顾父亲弗兰克(帕特里克?斯韦兹 Patrick Swayze 饰)的劝阻,擅自出门与新男友艾伦(布雷克? 海仑Blake Heron 饰)偷欢。所有一切的松散事件,都在11:14分相互交织,互为因果,让结局出人意料,不可思议。
Video
ID : 1
Format : AVC
Format/Info : Advanced Video Codec
Format profile : [email protected]
Format settings, CABAC : Yes
Format settings, ReFrames : 6 frames
Format settings, GOP : N=1
Codec ID : V_MPEG4/ISO/AVC
Duration : 1h 25mn
Bit rate : 11.7 Mbps
Width : 1 920 pixels
Height : 1 080 pixels
Display aspect ratio : 16:9
Frame rate mode : Constant
Frame rate : 23.976 fps
Color space : YUV
Chroma subsampling : 4:2:0
Bit depth : 8 bits
Scan type : Progressive
Bits/(Pixel*Frame) : 0.236
Stream size : 6.87 GiB (87%)
Writing library : x264 core 64 r985M e256ea1
Encoding settings : cabac=1 / ref=6 / deblock=1:-3:-3 / analyse=0x3:0x133 / me=umh / subme=7 / psy_rd=1.0:0.0 / brdo=1 / mixed_ref=1 / me_range=32 / chroma_me=1 / trellis=0 / 8x8dct=1 / cqm=2 / deadzone=8,6 / chroma_qp_offset=-2 / threads=12 / nr=0 / decimate=0 / mbaff=0 / bframes=16 / b_pyramid=1 / b_adapt=1 / b_bias=0 / direct=3 / wpredb=1 / bime=1 / keyint=250 / keyint_min=25 / scenecut=40(pre) / rc=2pass / bitrate=11734 / ratetol=1.0 / qcomp=0.60 / qpmin=10 / qpmax=51 / qpstep=4 / cplxblur=20.0 / qblur=0.5 / ip_ratio=1.40 / pb_ratio=1.30 / aq=1:1.00
Language : English
Default : Yes
Forced : No

Audio
ID : 2
Format : DTS
Format/Info : Digital Theater Systems
Mode : 16
Format settings, Endianness : Big
Codec ID : A_DTS
Duration : 1h 25mn
Bit rate mode : Constant
Bit rate : 1 509 Kbps
Channel(s) : 6 channels
Channel positions : Front: L C R, Side: L R, LFE
Sampling rate : 48.0 KHz
Bit depth : 24 bits
Compression mode : Lossy
Stream size : 925 MiB (11%)
Language : English
Default : Yes
Forced : No





1 个附件 售价 大小 下载 时间

11.14.2003.1080p.BluRay.x264.DTS-FGT.torrent 0 金币 79.88K 819 次 10天前

#1楼
发帖时间:2020-06-30 23:45:56   |   回复数:3
911degrees
隐世仙人♂
非常感谢,谢谢分享
9天前 #2楼
liyouchai
隐世仙人♂
谢谢楼主分享资源
9天前 #3楼
jokingcheung
一代宗师
谢谢分享
8天前 #4楼
游客组