coor
一代宗师

[2006] [欧美] [剧情] [BD-1080P] 硫磺岛的来信/来自硫磺岛的信 Letters.From.Iwo.Jima.2006.JAPANESE.1080p.BluRay.x264.DTS-FGT 9.2

-->



◎译  名 硫磺岛的来信 / 来自硫磺岛的信 / 硫磺岛家书 / 硫磺岛战书 / 硫磺島からの手紙
◎片  名 Letters from Iwo Jima
◎年  代 2006
◎产  地 美国
◎类  别 剧情 / 历史 / 战争
◎语  言 英语 / 日语
◎上映日期 2006-12-09(日本) / 2007-02-02(美国)
◎IMDb评分 7.9/10 from 151347 users
◎IMDb链接 https://www.imdb.com/title/tt0498380
◎豆瓣评分 8.2/10 from 49190 users
◎豆瓣链接 https://movie.douban.com/subject/1917171/
◎片  长 141 分钟
◎导  演 克林特·伊斯特伍德 Clint Eastwood
◎编  剧 Iris Yamashita / 保罗·哈吉斯 Paul Haggis / Tadamichi Kuribayashi / Tsuyoko Yoshido
◎主  演 渡边谦 Ken Watanabe
      二宫和也 Kazunari Ninomiya
      加濑亮 Ryo Kase
      中村狮童 Shido Nakamura
      伊原刚志 Tsuyoshi Ihara
      裕木奈江 Nae
      松崎悠希 Yuki Matsuzaki


◎标  签 二战 | 战争 | 日本 | 美国 | 硫磺岛的来信 | ClintEastwood | 美国电影 | 二宫和也

◎简  介

  中途岛战役失利直接宣布了日军在太平洋战场上的失败,负隅顽抗的日军依然坚守日本最南端的小岛—硫磺岛。这个看似不起眼的小岛,却上演了二战太平洋上最惨烈的战争。
  栗林忠道中将(渡边谦 饰)是日军在硫磺岛的指挥官,负责这道日军最后的防线。栗林中将大力改革日军内部的陋习和不足,并设计出一整套对付美军、以拖延为主的作战方案。虽然他和日军的二万名官兵都上下齐心,但面对占尽空中优势的四万名美军士兵,栗林知道这将是一场没有归路的战争。
  在最后的战争之前,栗林写下了他最后的家书……

◎获奖情况

  第79届奥斯卡金像奖(2007)
  最佳影片(提名) 史蒂文·斯皮尔伯格 / 罗伯特·洛伦兹 / 克林特·伊斯特伍德
  最佳导演(提名) 克林特·伊斯特伍德
  最佳原创剧本(提名) 保罗·哈吉斯 / 山下爱丽斯
  最佳音效剪辑 阿兰·罗伯特·默里 / 巴布·亚斯曼

  第64届金球奖(2007)
  电影类 最佳导演(提名) 克林特·伊斯特伍德
  电影类 最佳外语片

  第31届日本电影学院奖(2008)
  最佳外语片

  第7届美国电影学会奖(2006)
  年度佳片
Video
ID : 1
Format : AVC
Format/Info : Advanced Video Codec
Format profile : [email protected]
Format settings : CABAC / 5 Ref Frames
Format settings, CABAC : Yes
Format settings, Reference frames : 5 frames
Codec ID : V_MPEG4/ISO/AVC
Duration : 2 h 20 min
Bit rate : 7 889 kb/s
Width : 1 920 pixels
Height : 802 pixels
Display aspect ratio : 2.40:1
Frame rate mode : Constant
Frame rate : 23.976 (24000/1001/189150) FPS
Color space : YUV
Chroma subsampling : 4:2:0
Bit depth : 8 bits
Scan type : Progressive
Bits/(Pixel*Frame) : 0.214
Stream size : 7.57 GiB (82%)
Writing library : x264 core 100 r1659 57b2e56
Encoding settings : cabac=1 / ref=5 / deblock=1:-3:-3 / analyse=0x3:0x113 / me=umh / subme=10 / psy=1 / psy_rd=1.20:0.00 / mixed_ref=1 / me_range=64 / chroma_me=1 / trellis=2 / 8x8dct=1 / cqm=0 / deadzone=21,11 / fast_pskip=0 / chroma_qp_offset=-2 / threads=6 / sliced_threads=0 / nr=0 / decimate=1 / interlaced=0 / constrained_intra=0 / bframes=6 / b_pyramid=2 / b_adapt=2 / b_bias=0 / direct=3 / weightb=1 / open_gop=0 / weightp=2 / keyint=250 / keyint_min=25 / scenecut=40 / intra_refresh=0 / rc_lookahead=40 / rc=2pass / mbtree=0 / bitrate=7889 / ratetol=1.0 / qcomp=0.60 / qpmin=10 / qpmax=51 / qpstep=4 / cplxblur=20.0 / qblur=0.5 / vbv_maxrate=50000 / vbv_bufsize=62500 / ip_ratio=1.40 / pb_ratio=1.30 / aq=1:1.00 / nal_hrd=none
Language : Japanese
Default : Yes
Forced : No

Audio
ID : 2
Format : DTS
Format/Info : Digital Theater Systems
Codec ID : A_DTS
Duration : 2 h 20 min
Bit rate mode : Constant
Bit rate : 1 510 kb/s
Channel(s) : 6 channels
Channel layout : C L R Ls Rs LFE
Sampling rate : 48.0 kHz
Frame rate : 93.750 FPS (512 SPF)
Bit depth : 24 bits
Compression mode : Lossy
Stream size : 1.48 GiB (16%)
Language : Japanese
Default : Yes
Forced : No

Text
ID : 3
Format : UTF-8
Codec ID : S_TEXT/UTF8
Codec ID/Info : UTF-8 Plain Text
Language : English
Default : Yes
Forced : Yes





1 个附件 售价 大小 下载 时间

Letters.From.Iwo.Jima.2006.JAPANESE.1080p.BluRay.x264.DTS-FGT.torrent 0 金币 92.96K 1141 次 10天前

#1楼
发帖时间:2020-06-30 23:32:15   |   回复数:3
Jasongreat
武林盟主
应该还有一部姊妹篇的吧------父辈的旗帜;但是要谢谢楼主的分享
10天前 #2楼
jokingcheung
一代宗师
谢谢分享
9天前 #3楼
911degrees
隐世仙人♂
非常感谢,谢谢分享
9天前 #4楼
游客组