coor
一代宗师

[2007] [欧美] [剧情] [BD-1080P] 迈克尔·克莱顿/全面反击 Michael.Clayton.2007.1080p.BluRay.x264.DD5.1-FGT 7.95GB

-->



◎译  名 迈克尔·克莱顿 / 全面反击 / 敌对同谋 / 英雄不问出处 / 迈克尔·克雷顿
◎片  名 Michael Clayton
◎年  代 2007
◎产  地 美国
◎类  别 剧情 / 悬疑 / 惊悚 / 犯罪
◎语  言 英语
◎上映日期 2007-10-12
◎IMDb评分 7.2/10 from 153302 users
◎IMDb链接 https://www.imdb.com/title/tt0465538
◎豆瓣评分 7.1/10 from 10143 users
◎豆瓣链接 https://movie.douban.com/subject/1905790/
◎片  长 119 分钟
◎导  演 Tony Gilroy
◎编  剧 Tony Gilroy
◎主  演 George Clooney
      Tom Wilkinson
      Tilda Swinton
      Sydney Pollack


◎标  签 美国 | 乔治·克鲁尼 | 剧情 | 悬疑 | 美国电影 | GerogeClooney | 2007 | GeorgeClooney

◎简  介

  刑事犯罪检察官的迈克尔·克莱顿(乔治·克鲁尼 George Clooney 饰)曾在纽约法律界风光一时。离职后又在一家大型私人法律事务所谋事。在新老板马蒂·巴彻(西德尼·波拉克 Sydney Pollack 饰)的督促下,开始了清理不良记录的工作中。但工作和个人生活也因此改变:妻子孩子离他而去,债务让他没了以前的光彩。财政状况让他只得继续在工作中煎熬。同时,他又因为公司的肮脏业务而卷入一场价值高达数百万美元的集体诉讼案当中。而正当他利用自己的关系和丰富的办事经验“拨开迷雾”成功解决这场诉讼案时,老板手下的另一个办事员亚瑟·艾登斯(汤姆·威尔金森 Tom Wilkinson 饰)以及女诉讼律师凯伦·克劳德(蒂尔达·斯文顿 Tilda Swinton 饰)等人的一一卷入,使得迈克尔的事业和人生再次面临新一轮严峻的挑战……

◎获奖情况

  第80届奥斯卡金像奖(2008)
  最佳影片(提名) 西德尼·波拉克 / 詹妮弗·福克斯 / Kerry Orent
  最佳导演(提名) 托尼·吉尔罗伊
  最佳男主角(提名) 乔治·克鲁尼
  最佳男配角(提名) 汤姆·威尔金森
  最佳女配角 蒂尔达·斯文顿
  最佳原创剧本(提名) 托尼·吉尔罗伊
  最佳原创配乐(提名) 詹姆斯·纽顿·霍华德

  第64届威尼斯电影节(2007)
  金狮奖(提名) 托尼·吉尔罗伊

  第65届金球奖(2008)
  电影类 最佳剧情片(提名)
  电影类 剧情片最佳男主角(提名) 乔治·克鲁尼
  电影类 最佳男配角(提名) 汤姆·威尔金森
  电影类 最佳女配角(提名) 蒂尔达·斯文顿

  第61届英国电影学院奖(2008)
  电影奖 最佳男主角(提名) 乔治·克鲁尼
  电影奖 最佳男配角(提名) 汤姆·威尔金森
  电影奖 最佳女配角 蒂尔达·斯文顿
  电影奖 最佳原创剧本(提名) 托尼·吉尔罗伊
  电影奖 最佳剪辑(提名) John Gilroy

  第8届美国电影学会奖(2007)
  年度佳片
Video
ID : 1
Format : AVC
Format/Info : Advanced Video Codec
Format profile : [email protected]
Format settings, CABAC : Yes
Format settings, ReFrames : 5 frames
Codec ID : V_MPEG4/ISO/AVC
Duration : 1h 59mn
Bit rate : 8 844 Kbps
Width : 1 920 pixels
Height : 800 pixels
Display aspect ratio : 2.40:1
Frame rate mode : Constant
Frame rate : 23.976 fps
Color space : YUV
Chroma subsampling : 4:2:0
Bit depth : 8 bits
Scan type : Progressive
Bits/(Pixel*Frame) : 0.240
Stream size : 7.25 GiB (91%)
Writing library : x264 core 58 svn-736M
Encoding settings : cabac=1 / ref=5 / deblock=1:-3:-3 / analyse=0x3:0x133 / me=umh / subme=7 / me-prepass=0 / brdo=1 / mixed_ref=1 / me_range=16 / chroma_me=1 / trellis=0 / 8x8dct=1 / cqm=2 / deadzone=6,4 / chroma_qp_offset=0 / threads=3 / nr=0 / decimate=1 / mbaff=0 / bframes=3 / b_pyramid=1 / b_adapt=1 / b_bias=0 / direct=1 / wpredb=1 / bime=1 / keyint=250 / keyint_min=25 / scenecut=40(pre) / rc=2pass / bitrate=8844 / ratetol=1.0 / rceq=\'blurCplx^(1-qComp)\' / qcomp=1.00 / qpmin=10 / qpmax=51 / qpstep=4 / cplxblur=20.0 / qblur=0.5 / ip_ratio=1.40 / pb_ratio=1.30 / aq=1:0.5:13.0
Language : English
Default : Yes
Forced : No

Audio
ID : 2
Format : AC-3
Format/Info : Audio Coding 3
Mode extension : CM (complete main)
Format settings, Endianness : Big
Codec ID : A_AC3
Duration : 1h 59mn
Bit rate mode : Constant
Bit rate : 640 Kbps
Channel(s) : 6 channels
Channel positions : Front: L C R, Side: L R, LFE
Sampling rate : 48.0 KHz
Compression mode : Lossy
Stream size : 549 MiB (7%)
Language : English
Default : Yes
Forced : No

Text #1
ID : 3
Format : ASS
Codec ID : S_TEXT/ASS
Codec ID/Info : Advanced Sub Station Alpha
Compression mode : Lossless
Language : English
Default : No
Forced : No

Text #2
ID : 4
Format : ASS
Codec ID : S_TEXT/ASS
Codec ID/Info : Advanced Sub Station Alpha
Compression mode : Lossless
Language : Chinese
Default : No
Forced : No

Text #3
ID : 5
Format : ASS
Codec ID : S_TEXT/ASS
Codec ID/Info : Advanced Sub Station Alpha
Compression mode : Lossless
Language : Polish
Default : No
Forced : No

Text #4
ID : 6
Format : ASS
Codec ID : S_TEXT/ASS
Codec ID/Info : Advanced Sub Station Alpha
Compression mode : Lossless
Language : Romanian
Default : No
Forced : No

Text #5
ID : 7
Format : ASS
Codec ID : S_TEXT/ASS
Codec ID/Info : Advanced Sub Station Alpha
Compression mode : Lossless
Language : Spanish
Default : No
Forced : No

Text #6
ID : 8
Format : ASS
Codec ID : S_TEXT/ASS
Codec ID/Info : Advanced Sub Station Alpha
Compression mode : Lossless
Language : Serbian
Default : No
Forced : No

Text #7
ID : 9
Format : ASS
Codec ID : S_TEXT/ASS
Codec ID/Info : Advanced Sub Station Alpha
Compression mode : Lossless
Language : Chinese
Default : No
Forced : No

Text #8
ID : 10
Format : ASS
Codec ID : S_TEXT/ASS
Codec ID/Info : Advanced Sub Station Alpha
Compression mode : Lossless
Language : Czech
Default : No
Forced : No

Text #9
ID : 11
Format : ASS
Codec ID : S_TEXT/ASS
Codec ID/Info : Advanced Sub Station Alpha
Compression mode : Lossless
Language : French
Default : No
Forced : No

Text #10
ID : 12
Format : ASS
Codec ID : S_TEXT/ASS
Codec ID/Info : Advanced Sub Station Alpha
Compression mode : Lossless
Language : Greek
Default : No
Forced : No

Text #11
ID : 13
Format : ASS
Codec ID : S_TEXT/ASS
Codec ID/Info : Advanced Sub Station Alpha
Compression mode : Lossless
Language : Hungarian
Default : No
Forced : No





1 个附件 售价 大小 下载 时间

Michael.Clayton.2007.1080p.BluRay.x264.DD5.1-FGT.torrent 0 金币 80.09K 763 次 10天前

#1楼
发帖时间:2020-06-30 23:10:19   |   回复数:2
yangbo83222179
一代宗师
谢谢楼主分享
9天前 #2楼
911degrees
隐世仙人♂
非常感谢,谢谢分享
9天前 #3楼
游客组